close

Вход

Забыли?

вход по аккаунту

?

00. Various Artists - Moulin Rouge. Music From Baz Luhrmann's Film

код для вставкиСкачать
Exact Audio Copy V1.0 beta 3 from 29. August 2011
EAC extraction logfile from 6. March 2013, 21:38
Various Artists / Moulin Rouge. Music From Baz Luhrmann's Film
Used drive : Optiarc DVD RW AD-7710H Adapter: 0 ID: 1
Read mode : Secure
Utilize accurate stream : Yes
Defeat audio cache : Yes
Make use of C2 pointers : No
Read offset correction : 48
Overread into Lead-In and Lead-Out : No
Fill up missing offset samples with silence : Yes
Delete leading and trailing silent blocks : No
Null samples used in CRC calculations : Yes
Used interface : Native Win32 interface for Win NT & 2000
Gap handling : Appended to previous track
Used output format : User Defined Encoder
Selected bitrate : 128 kBit/s
Quality : High
Add ID3 tag : No
Command line compressor : D:\programs\Exact Audio Copy v .1.0 beta 3\Exact Audio Copy\Flac\flac.exe
Additional command line options : -V -8 -T "Genre=%genre%" -T "Artist=%artist%" -T "Title=%title%" -T "Album=%albumtitle%" -T "Date=%year%" -T "Tracknumber=%tracknr%" -T "Comment=ripped by attami" %source%
TOC of the extracted CD
Track | Start | Length | Start sector | End sector ---------------------------------------------------------
1 | 0:00.00 | 3:25.40 | 0 | 15414 2 | 3:25.40 | 4:24.67 | 15415 | 35281 3 | 7:50.32 | 3:27.30 | 35282 | 50836 4 | 11:17.62 | 2:52.30 | 50837 | 63766 5 | 14:10.17 | 3:49.30 | 63767 | 80971 6 | 17:59.47 | 3:38.60 | 80972 | 97381 7 | 21:38.32 | 2:59.38 | 97382 | 110844 8 | 24:37.70 | 3:18.42 | 110845 | 125736 9 | 27:56.37 | 4:34.25 | 125737 | 146311 10 | 32:30.62 | 4:13.28 | 146312 | 165314 11 | 36:44.15 | 4:48.32 | 165315 | 186946 12 | 41:32.47 | 4:43.70 | 186947 | 208241 13 | 46:16.42 | 3:05.58 | 208242 | 222174 14 | 49:22.25 | 3:28.12 | 222175 | 237786 15 | 52:50.37 | 4:08.50 | 237787 | 256436 Track 1
Filename D:\track+.cue_attami\Moulin Rouge. Music From Baz Luhrmann's Film\01. David Bowie - Nature Boy.wav
Pre-gap length 0:00:02.00
Peak level 98.8 %
Extraction speed 2.5 X
Track quality 99.9 %
Test CRC B0DE89A9
Copy CRC B0DE89A9
Cannot be verified as accurate (confidence 108) [90DFC586], AccurateRip returned [103AA98A] (AR v2)
Copy OK
Track 2
Filename D:\track+.cue_attami\Moulin Rouge. Music From Baz Luhrmann's Film\02. Christina Aguilera, Lil'Kim, Mya and Pink - Lady Marmalade.wav
Peak level 100.0 %
Extraction speed 3.3 X
Track quality 100.0 %
Test CRC F3A24392
Copy CRC F3A24392
Cannot be verified as accurate (confidence 107) [8DFC4572], AccurateRip returned [06D87F52] (AR v2)
Copy OK
Track 3
Filename D:\track+.cue_attami\Moulin Rouge. Music From Baz Luhrmann's Film\03. Fatboy Slim - Because We Can.wav
Peak level 100.0 %
Extraction speed 3.4 X
Track quality 100.0 %
Test CRC FE4EA5C3
Copy CRC FE4EA5C3
Cannot be verified as accurate (confidence 104) [7F0E57DE], AccurateRip returned [3557F295] (AR v2)
Copy OK
Track 4
Filename D:\track+.cue_attami\Moulin Rouge. Music From Baz Luhrmann's Film\04. Nicole Kidman, Jim Broadbent, Caroline O'Connor, Natalie Mandoza and Lara Mulcahy - Sparkling Diamonds.wav
Peak level 98.8 %
Extraction speed 3.6 X
Track quality 100.0 %
Test CRC 9C8D4EA0
Copy CRC 9C8D4EA0
Cannot be verified as accurate (confidence 105) [BE004FBF], AccurateRip returned [BE4701D9] (AR v2)
Copy OK
Track 5
Filename D:\track+.cue_attami\Moulin Rouge. Music From Baz Luhrmann's Film\05. Valeria - Rhythm of the Night.wav
Pre-gap length 0:00:00.01
Peak level 98.8 %
Extraction speed 3.4 X
Track quality 99.9 %
Test CRC AF46061C
Copy CRC AF46061C
Cannot be verified as accurate (confidence 105) [4D220A04], AccurateRip returned [AF7A097A] (AR v2)
Copy OK
Track 6
Filename D:\track+.cue_attami\Moulin Rouge. Music From Baz Luhrmann's Film\06. Ewan McGregor and Alessandro Safina - Your Song.wav
Peak level 98.8 %
Extraction speed 3.6 X
Track quality 99.9 %
Test CRC 483686C8
Copy CRC 483686C8
Cannot be verified as accurate (confidence 106) [2E5AC06F], AccurateRip returned [FB9A9A97] (AR v2)
Copy OK
Track 7
Filename D:\track+.cue_attami\Moulin Rouge. Music From Baz Luhrmann's Film\07. Bono, Gavin Friday and Maurice Seezer - Children of the Revolution.wav
Peak level 98.8 %
Extraction speed 4.1 X
Track quality 100.0 %
Test CRC 65602BCD
Copy CRC 65602BCD
Cannot be verified as accurate (confidence 106) [8A4D4459], AccurateRip returned [3C088CD5] (AR v2)
Copy OK
Track 8
Filename D:\track+.cue_attami\Moulin Rouge. Music From Baz Luhrmann's Film\08. Nicole Kidman - One Day I'll Fly Away.wav
Peak level 98.8 %
Extraction speed 3.7 X
Track quality 99.9 %
Test CRC 71F59B27
Copy CRC 71F59B27
Cannot be verified as accurate (confidence 105) [2C3BD03B], AccurateRip returned [84986114] (AR v2)
Copy OK
Track 9
Filename D:\track+.cue_attami\Moulin Rouge. Music From Baz Luhrmann's Film\09. Beck - Diamond Dogs.wav
Peak level 98.8 %
Extraction speed 4.8 X
Track quality 100.0 %
Test CRC 69734959
Copy CRC 69734959
Cannot be verified as accurate (confidence 101) [E7F6F3C0], AccurateRip returned [D6AE8912] (AR v2)
Copy OK
Track 10
Filename D:\track+.cue_attami\Moulin Rouge. Music From Baz Luhrmann's Film\10. Nicole Kidman, Ewan McGregor and Jamie Allen - Elephant Love Medley.wav
Peak level 98.8 %
Extraction speed 4.9 X
Track quality 100.0 %
Test CRC F801CA6D
Copy CRC F801CA6D
Cannot be verified as accurate (confidence 105) [D7ABD399], AccurateRip returned [D4C833C7] (AR v2)
Copy OK
Track 11
Filename D:\track+.cue_attami\Moulin Rouge. Music From Baz Luhrmann's Film\11. Nicole Kidman and Ewan McGregor - Come What May.wav
Peak level 98.8 %
Extraction speed 5.1 X
Track quality 100.0 %
Test CRC DD2063D2
Copy CRC DD2063D2
Cannot be verified as accurate (confidence 100) [3CF4E2C7], AccurateRip returned [175A39DB] (AR v2)
Copy OK
Track 12
Filename D:\track+.cue_attami\Moulin Rouge. Music From Baz Luhrmann's Film\12. Ewan McGregor, Jose Feliciano and Jacek Koman - El Tango de Roxanne.wav
Peak level 98.8 %
Extraction speed 5.4 X
Track quality 100.0 %
Test CRC 9114B1DE
Copy CRC 9114B1DE
Cannot be verified as accurate (confidence 105) [627365DD], AccurateRip returned [FB549073] (AR v2)
Copy OK
Track 13
Filename D:\track+.cue_attami\Moulin Rouge. Music From Baz Luhrmann's Film\13. Rufus Wainwright - Complainte de la Butte.wav
Peak level 98.8 %
Extraction speed 5.3 X
Track quality 100.0 %
Test CRC F1361223
Copy CRC F1361223
Cannot be verified as accurate (confidence 101) [C830200E], AccurateRip returned [0D1F4586] (AR v2)
Copy OK
Track 14
Filename D:\track+.cue_attami\Moulin Rouge. Music From Baz Luhrmann's Film\14. Nicole Kidman, John Leguizamo and Alka Yagnic - Hindi Sad Diamonds.wav
Peak level 98.8 %
Extraction speed 4.7 X
Track quality 99.9 %
Test CRC 83DA2552
Copy CRC 83DA2552
Cannot be verified as accurate (confidence 106) [AC10B078], AccurateRip returned [D2B89B34] (AR v2)
Copy OK
Track 15
Filename D:\track+.cue_attami\Moulin Rouge. Music From Baz Luhrmann's Film\15. David Bowie and Massive Attack - Nature Boy.wav
Peak level 85.1 %
Extraction speed 5.1 X
Track quality 99.9 %
Test CRC 8045F178
Copy CRC 8045F178
Cannot be verified as accurate (confidence 103) [829A988D], AccurateRip returned [4C538C46] (AR v2)
Copy OK
No tracks could be verified as accurate
You may have a different pressing from the one(s) in the database
No errors occurred
End of status report
==== Log checksum DDE37A40EA3A6664535A3EA44CA7E07BAC6161D7A004B914281D34FA1D8DD966 ====
Автор
galwim
Документ
Категория
Без категории
Просмотров
42
Размер файла
9 Кб
Теги
baz, luhrmann, films, artists, moulin, rouge, music, various
1/--страниц
Пожаловаться на содержимое документа